debian

mediainfo – Información detallada de un fichero de audio o video

MediaInfo_90x90

MediaInfo es un utilitario que permite:

  • Leer varios formatos de audio y video
  • Mostrar información en varios formatos: texto, html, hojas de cálculo (sheet), jerárquica (tree), …
  • Personalizar las vistas anteriores
  • Exportar información como texto, csv, html, …

La información volcada por MediaInfo es la siguiente:

  • General: título, autor, director, albúm, duración, tamaño del fichero, …
  • Video: codec, aspecto, frame por segundo (fps), bitrate, ancho (width), altura (height), …
  • Audio: codec, canales, idioma, bitrate, …
  • Text: idioma del subtítulo

MediaInfo soporta los siguiente formatos:

  • Video: mkv, ogm, avi, divx, quicktime, mpeg-1, mpeg-2, mpeg-4, …
  • Audio: ogg, mp3, wav, acc, m4a, …
  • Subtítulos: srt, ssa, ass, sami, …

MediaInfo puede usarse a través de su interfaz gráfica, su interfaz de línea de comando o integrarse en una aplicación usando su API.

Para instalar MediaInfo (cli) en Debian GNU/Linux teclee:
$ sudo apt-get install mediainfo
Para obtener información de un fichero teclee:
$ mediainfo buffers_listed_and_hidden.ogv
General
ID                                       : 280403682 (0x10B69EE2)
Complete name                            : buffers_listed_and_hidden.ogv
Format                                   : OGG
File size                                : 4.61 MiB
Duration                                 : 3mn 28s
Overall bit rate mode                    : Variable
Overall bit rate                         : 186 Kbps
Writing application                      : ffmpeg2theora-0.25
SOURCE_OSHASH                            : 3fd514e6b64347ca

Video
ID                                       : 889190165 (0x34FFF715)
Format                                   : Theora
Duration                                 : 3mn 28s
Bit rate                                 : 89.5 Kbps
Nominal bit rate                         : 297 Kbps
Width                                    : 640 pixels
Height                                   : 480 pixels
Display aspect ratio                     : 4:3
Frame rate                               : 30.000 fps
Compression mode                         : Lossy
Bits/(Pixel*Frame)                       : 0.010
Stream size                              : 2.22 MiB (48%)
Writing library                          : Xiph.Org libtheora 1.1 20090822 (Thusnelda)

Audio
ID                                       : 1236641633 (0x49B5A761)
Format                                   : Vorbis
Format settings, Floor                   : 1
Duration                                 : 3mn 28s
Bit rate mode                            : Variable
Bit rate                                 : 80.0 Kbps
Channel(s)                               : 2 channels
Sampling rate                            : 44.1 KHz
Compression mode                         : Lossy
Stream size                              : 1.99 MiB (43%)
Writing library                          : libVorbis 20090709 (UTC 2009-07-09)

Lecturas recomendadas

– man mediainfo

Proyecto MediaInfo

Formatear ficheros XML

GNU/Linux
Los ficheros XML ofuscados son díficiles de leer pues todo el contenido del fichero ocupa una sola línea. Hoy LibreByte te ofrece 3 herramientas que permiten darle formato (pretty print) a un fichero XML.

Herramienta 1: Navegador web, ejemplos: Mozilla firefox, Google Chrome. La desventaja de usar un navegador es que no puedes editar el fichero XML solo seria util si lo que deseas es visualizarlo.

Herramienta 2: Usar xml_pp, xml_pp forma parte de la suite XML-Twig, para instalar dicha suite en Debian GNU/Linux teclee:

$ sudo apt-get install xml-twig-tools

Luego puedes formatear el fichero XML tecleando:

$ xml_pp -i mifichero.xml

Si deseas salvar el contenido formateado en otro fichero, teclee:

$ xml_pp mifichero.xml > mifichero_pp.xml 

Si deseas editar el fichero formateado puedes usar cualquier editor de texto.

Herramienta 3: Editor Geany y el plugin prettyprinter, para instalarlo en Debian GNU/Linux teclee:

$ sudo apt-get install geany geany-plugin-prettyprinter

Una vez ejecutado el comando anterior, debes ejecutar los siguientes pasos para activar el plugin

1. Ejecutar Geany
XFCE:

Menu -> Development -> Geany

Desde la consola también puedes teclear:

$ geany &

2. Buscar el Menú

Tools -> Plugin Manager

3. Activar el plugin XML PrettyPrinter

Una vez activado el plugin la opción de formatear XML aparece en el Menu:

Tools -> PrettyPtrinter XML

Lecturas recomendadas

– man xml_pp
– Sitio oficial proyecto Geany
XML-Twig
Geany un IDE ligero

Instalar LibreOffice en Debian GNU/Linux 8 (Jessie)

Según Wikipedia:

LibreOffice es una suite ofimática libre y gratuita, compatible con Microsoft Windows, Mac y GNU/Linux. Cuenta con un procesador de texto (Writer), un editor de hojas de cálculo (Calc), un creador de presentaciones (Impress), un gestor de bases de datos (Base), un editor de gráficos vectoriales (Draw), y un editor de fórmulas matemáticas (Math).

A la definición anterior agregaría que también es compatible con SO BSD (OpenBSD, FreeBSD, NetBSD).

LibreOffice cubre un amplio rango de necesidades ofimáticas y por tanto puede reemplazar a suites privativas como: Microsoft Office.

Encontrar ficheros duplicados en GNU/Linux

Una de las maneras más fácil y segura de encontrar ficheros duplicados en GNU/Linux es usando la herramienta fdupes, fdupes encuentra los ficheros duplicados comparando el tamaño de los ficheros, haciendo un chequeo MD5 seguido por una comparación byte a byte.

Manipular particiones NTFS en GNU/Linux

Para manipular particiones ntfs en GNU/Linux debes instalar el paquete ntfs-3g

Nota: A partir de abril del 2011 los proyectos ntfs-3g y ntfsprogs unieron fuerzas por tanto ahora todo esta en una sola suite: ntfs-3g.

Los más probable es que su distribución ya tenga instalada la suite ntfs-3g o si no puede hacerlo ejecutando

Debian/Ubuntu

$ sudo apt-get install ntfs-3g

CentOS/Fedora/RHEL

# yum install ntfs-3g

Administrador de enenergía XFCE no funciona

En honor a la verdad este no debería ser el título de este post, pero fue por donde primero busqué cuando me ocurrió la siguiente situación: Hace alrededor de un mes instalé en la computadora de mi casa Debian GNU/Linux 6.0.4 (Squeze), anteriormente tenía instalado Ubuntu 9.04, todo iba perfecto pero sucedió que cuando le puse muñes a mi hija de 4 años a los 10 min, se activó el refrescador de pantalla en este caso pantalla negra con el led del display flasheando, como pueden imaginar este comportamiento es muy incomodo, mi hija tuvo que mover el mouse en varias ocaciones para desactivar el refrescador de pantalla, así que debía cambiar este comportamiento